#TITLE:AM-3P;
#SUBTITLE:(Blue Trance Mix);
#ARTIST:KTz (remixed by Tsukasa);
#TITLETRANSLIT:;
#SUBTITLETRANSLIT:;
#ARTISTTRANSLIT:;
#CREDIT:;
#BANNER:am3pblue-bn.PNG;
#BACKGROUND:am3pblue-bg.PNG;
#LYRICSPATH:;
#CDTITLE:;
#MUSIC:AM-3P (Blue Trance Mix).mp3;
#OFFSET:-6.920;
#SAMPLESTART:54.940;
#SAMPLELENGTH:12.700;
#SELECTABLE:YES;
#BPMS:0.000=140.000,56.000=70.000,68.000=140.000;
#STOPS:;
#BGCHANGES:;
// cache tags:
#FIRSTBEAT:0.000;
#LASTBEAT:231.000;
#SONGFILENAME:Songs/nhac/AM-3P (Blue Trance Mix)/AM-3P (Blue Trance Mix).sm;
#HASMUSIC:1;
#HASBANNER:1;
#MUSICLENGTH:111.550;
// end cache tags

//---------------dance-single - ----------------
#NOTES:
     dance-single:
     :
     Challenge:
     8:
     0.488,0.621,0.260,0.368,0.202,311.000,29.000,41.000,0.000,0.000:
2000
0000
0000
0100
,
0200
0000
0300
0020
0000
0030
0000
0000
,
0002
0003
0000
0010
,
0020
0000
0030
0200
0000
0000
3300
0000
,
1000
0100
0000
1000
0100
0000
1000
0100
0000
0000
0010
0000
0100
0000
0010
0000
,
0001
0100
0000
0001
0100
0000
0001
0100
0000
0000
0010
0000
0100
0000
0010
0000
,
1000
0001
0000
1000
0001
0000
1000
0001
0000
0000
0001
0000
1000
0000
0001
0000
,
0100
0100
0010
0010
,
1000
0001
0000
1000
0001
0000
1000
0001
1000
0000
0100
0000
0001
0000
0000
0000
,
0001
0100
1000
0000
1000
0100
0001
0000
,
2002
0000
3003
2002
0000
3003
2002
0000
,
3003
2002
0000
3003
0110
0010
0110
0100
,
0220
0000
0000
0000
,
0000
0000
0000
0330
,
2002
0000
0000
0000
0000
0000
0000
3003
,
0202
0000
0000
0000
0000
0000
0000
0303
,
2020
0000
0000
0000
0000
0000
0000
3030
,
1001
0000
1000
0100
0010
0100
1000
0000
,
0001
0010
0100
0010
0001
0000
0010
0100
,
1000
0100
0010
0000
0100
0010
0001
0010
,
0100
0000
1000
0100
0010
0001
0010
0100
,
1000
0000
0000
1100
0000
0000
0100
0000
0000
0000
0010
0000
0010
0000
0010
0000
,
0001
0000
0000
1000
0000
0000
1001
0000
0000
0000
0100
0000
0010
0000
0000
0000
,
1000
0100
1000
0100
1000
0100
1000
0100
,
1000
0100
1000
0100
1000
0100
1000
0100
,
2000
0000
0000
0100
,
3200
0000
0000
0010
,
0320
0000
0000
0001
,
0032
0000
0000
0000
1003
0100
0010
0100
,
1000
0001
0000
1000
0001
0000
1000
0001
0000
0000
0010
0000
0100
0000
0010
0000
,
1000
0001
0000
1000
0001
0000
1000
0001
0000
0000
0100
0000
0010
0000
0100
0000
,
0001
0010
0000
0001
0010
0000
0001
0010
0000
0000
0100
0000
0010
0000
0100
0000
,
1000
0000
0100
0000
1100
0000
0000
1010
0000
0000
0101
0000
0000
0000
0000
0000
,
0002
0000
0000
0100
,
0203
0000
0000
0010
,
0320
0000
0000
1000
,
2030
0000
0000
0000
3001
0010
0100
0010
,
0001
1000
0000
0001
1000
0000
0001
1000
0000
0000
0100
0000
1000
0000
0100
0000
,
1000
0001
0000
1000
0001
0000
1000
0001
0000
0000
0100
0000
0001
0000
0100
0000
,
0001
1000
0000
0001
1000
0000
0001
1000
0000
0000
0010
0000
0100
0000
0010
0000
,
1000
0000
0100
0000
0010
0000
0001
0000
0010
0000
0100
0000
1000
0000
0100
0010
,
0200
0000
0000
0000
0310
0010
0000
0010
,
0000
0010
0010
0010
0100
0010
0100
0010
,
0100
0100
0100
0000
0100
0100
0000
0100
,
0000
0100
0100
0000
0100
0001
0100
0001
,
0100
0001
0001
0000
0001
0001
0000
0001
,
0000
0001
0001
0000
0001
1000
0001
1000
,
0001
1000
1000
0000
1000
1000
0000
1000
,
0100
0000
0010
0000
0001
0000
1001
0000
0000
0000
1000
0000
0100
0010
0100
0000
,
0010
0100
0000
0010
0100
0000
0010
0100
0000
0000
0001
0000
1000
0000
0001
0000
,
0100
0010
0000
0100
0010
0000
0100
0010
0000
0000
1000
0000
0001
0000
1000
0000
,
0010
0100
0000
0010
0100
0000
0010
0100
0000
0000
0001
0000
1000
0000
0001
0000
,
1000
1000
1000
1000
,
0110
0000
0000
0110
0000
0000
0110
0000
0100
0000
0010
0000
0001
0000
0000
0000
,
0001
0010
0100
0000
0100
0010
1000
0000
,
2002
0000
3003
2200
0000
3300
2002
0000
,
3003
0022
0000
0033
1001
0110
1001
0110
,
2002
0000
0000
3003
;

//---------------dance-single - Deep Blue----------------
#NOTES:
     dance-single:
     Deep Blue:
     Edit:
     10:
     0.674,0.770,1.000,0.143,0.556,364.000,146.000,16.000,0.000,0.000:
2002
0000
3003
0110
,
0202
0303
2200
3300
,
2020
0000
3030
1100
,
2020
0000
3030
2002
0000
0000
0000
3003
,
0100
0001
0000
1000
0010
0000
1001
0000
0000
0100
0010
0000
0011
0000
1100
0000
,
0001
0000
0000
1100
0000
0000
0010
0000
0000
1000
0100
0000
0011
0000
1100
0000
,
0010
0000
0000
1001
0000
0000
0100
0000
0000
0010
1000
0000
0101
0000
1000
0000
,
0010
0100
0000
0001
0010
0000
1000
0100
0000
0010
0001
0000
0000
0000
0000
0000
,
1000
0010
0000
0001
0010
0000
1000
0010
0000
0000
1000
0100
0010
0000
0001
0010
,
0100
0000
1000
0100
0001
0000
0010
0100
0001
0000
1000
0010
0001
0000
0000
0000
,
1001
0000
0000
1001
0000
0000
1001
0000
,
0000
1001
0000
0000
1100
0011
1100
1001
,
0220
0000
0000
0000
,
0000
0000
0000
0330
,
1001
0000
0000
0000
,
0011
0000
0000
0000
,
1100
0000
0000
0000
,
1100
0000
0000
0110
0000
0000
0011
0000
0000
0000
1100
0000
0011
0000
1100
0000
,
0011
0000
0000
0110
0000
0000
1100
0000
0000
0000
0011
0000
1100
0000
0011
0000
,
1001
0000
0000
0110
0000
0000
0011
0000
0000
0000
1100
0000
1001
0000
0011
0000
,
0001
0100
0001
0100
1000
0010
1000
0010
0100
0010
0100
0010
0001
1000
0001
1000
,
1001
0000
0000
1100
0000
0000
0011
0000
0000
0000
1001
0000
0011
0000
1100
0000
,
0110
0000
0000
1100
0000
0000
0011
0000
0000
0000
1001
0000
0110
0000
1100
0000
,
0001
0010
0100
1000
0001
0010
0100
1000
0001
0010
0100
1000
0001
0010
0100
1000
,
0010
0100
0001
1000
0010
0100
0001
1000
0010
0100
0001
1000
0010
0100
0001
1000
,
1001
0000
0000
0000
,
1100
0000
0000
0000
,
0011
0000
0000
0000
,
1010
0000
0000
0000
0000
0000
0000
0000
0000
0100
0010
1000
0100
0001
0010
0100
,
1000
0100
0000
0001
0010
0000
1010
0000
0000
0100
0001
0000
1000
0000
0110
0000
,
0001
1000
0000
0100
1000
0000
0110
0000
0000
0010
0001
0000
1001
0000
1100
0000
,
0011
0000
0000
1100
0000
0000
1010
0000
0000
0001
0010
0000
0101
0000
1010
0000
,
0100
0010
0000
0000
1010
0000
0000
1001
0000
0000
0011
0000
0000
0000
0000
0000
,
0110
0000
0000
0000
,
1001
0000
0000
0000
,
1010
0000
0000
0000
,
0101
0000
0000
0000
0000
0000
0000
0000
0000
0010
1000
0100
0010
1000
0001
0100
,
0010
1000
0000
0100
0001
0000
1010
0000
0000
0100
0001
0000
1010
0000
0110
0000
,
1000
0001
0000
1000
0010
0000
0100
0001
0000
1000
0010
0000
1100
0000
0011
0000
,
0001
1000
0001
1000
0100
0010
0100
0010
1000
0010
1000
0010
0100
0001
0100
0001
,
0010
0001
0010
0001
0100
1000
0100
1000
0010
0001
0010
0001
0100
1000
0100
1000
,
0100
0010
0000
0000
0000
0000
0000
0000
0011
0000
0011
0000
0000
0000
0110
0000
,
0000
1100
1100
1001
1001
0011
0011
1001
,
0000
1010
0101
0000
1001
1100
0000
0110
,
0000
0000
0011
0000
1010
0000
0000
0101
0000
1010
0000
0110
0000
1001
0000
0000
,
0000
0000
1010
0010
0100
0000
0000
0000
0011
0010
0100
0000
0000
0010
1010
0000
,
0000
0010
0011
0000
1001
0000
0000
1100
0000
0011
0000
1010
0000
0101
0000
1010
,
0000
0000
1100
0100
1000
0000
0000
0000
0101
0001
0100
0000
0000
1000
1001
0000
,
0101
0000
1010
0000
0101
0000
1010
0000
0000
0000
0010
0100
0010
0100
0010
0100
,
0001
1000
0000
0010
0001
0000
0100
0001
0000
0000
1100
0000
0110
0000
0011
0000
,
1000
0100
0000
0010
0001
0000
1000
0001
0000
0000
0011
0000
0110
0000
1100
0000
,
0010
0100
0000
1000
0001
0000
0010
0100
0000
0001
1001
0000
1100
0000
0011
0000
,
0001
0100
0000
0000
0010
0000
0000
1000
0000
0000
0100
0000
0000
0000
0000
0000
,
0010
0100
0000
0010
0100
0000
0010
0100
1100
0000
0000
0000
0011
0000
0000
0000
,
1100
0011
1100
0011
,
1001
0000
0000
1001
0000
0000
1001
0000
,
0000
1001
0000
0000
0011
0110
1100
0110
,
0022
0033
0000
0000
;
